osu file format v14

[General]
AudioFilename: Endless Story.mp3
AudioLeadIn: 1500
PreviewTime: 56949
Countdown: 0
SampleSet: None
StackLeniency: 0.7
Mode: 3
LetterboxInBreaks: 0
WidescreenStoryboard: 1

[Editor]
DistanceSpacing: 0.8
BeatDivisor: 4
GridSize: 32
TimelineZoom: 2

[Metadata]
Title:Anime OP/ED Fantasy
TitleUnicode:Anime OP/ED Fantasy
Artist:Various Artist
ArtistUnicode:Various Artist
Creator:bima fajar
Version:Endless Story [4k SC]
Source:
Tags:log horizon log horizon 2 bleach 11eyes black bullet C3 shikyubu romeo x juliet naruto attack on titan chaos dragon sekiryuu sen'eki accel world mahouka koukou no rettousei
BeatmapID:828882
BeatmapSetID:378584

[Difficulty]
HPDrainRate:8
CircleSize:4
OverallDifficulty:8
ApproachRate:5
SliderMultiplier:1.4
SliderTickRate:1

[Events]
//Background and Video events
0,0,"c3fear.jpg",0,0
//Break Periods
//Storyboard Layer 0 (Background)
//Storyboard Layer 1 (Fail)
//Storyboard Layer 2 (Pass)
//Storyboard Layer 3 (Foreground)
//Storyboard Sound Samples

[TimingPoints]
0,759.493670886076,4,2,0,100,1,0
13549,320.855614973262,4,2,0,100,1,0

[HitObjects]
64,192,189,5,0,0:0:0:0:
192,192,569,1,0,0:0:0:0:
320,192,949,128,0,1329:0:0:0:0:
448,192,1708,128,0,2088:0:0:0:0:
320,192,2468,128,0,2848:0:0:0:0:
192,192,3227,1,0,0:0:0:0:
448,192,3607,1,0,0:0:0:0:
320,192,3987,128,0,4367:0:0:0:0:
192,192,4367,1,0,0:0:0:0:
320,192,4746,128,0,5126:0:0:0:0:
192,192,5126,1,0,0:0:0:0:
320,192,5506,128,0,6075:0:0:0:0:
64,192,6265,1,0,0:0:0:0:
448,192,6645,1,0,0:0:0:0:
192,192,7025,128,0,7594:0:0:0:0:
320,192,7784,128,0,8164:0:0:0:0:
192,192,8544,128,0,9113:0:0:0:0:
448,192,9303,1,0,0:0:0:0:
320,192,9683,1,0,0:0:0:0:
192,192,10063,128,0,10443:0:0:0:0:
448,192,10443,1,0,0:0:0:0:
64,192,10822,1,0,0:0:0:0:
320,192,11202,1,0,0:0:0:0:
192,192,11582,128,0,13481:0:0:0:0:
320,192,13481,1,0,0:0:0:0:
448,192,13481,1,0,0:0:0:0:
320,192,13549,1,0,0:0:0:0:
448,192,13549,1,0,0:0:0:0:
320,192,13629,1,0,0:0:0:0:
448,192,13629,1,0,0:0:0:0:
320,192,13709,1,0,0:0:0:0:
448,192,13709,1,0,0:0:0:0:
448,192,13789,1,0,0:0:0:0:
320,192,13789,1,0,0:0:0:0:
320,192,13869,1,0,0:0:0:0:
448,192,13869,1,0,0:0:0:0:
320,192,13950,1,0,0:0:0:0:
448,192,13950,1,0,0:0:0:0:
320,192,14030,1,0,0:0:0:0:
448,192,14030,1,0,0:0:0:0:
320,192,14110,1,0,0:0:0:0:
448,192,14110,1,0,0:0:0:0:
64,192,14190,1,0,0:0:0:0:
192,192,14270,1,0,0:0:0:0:
448,192,14511,1,0,0:0:0:0:
64,192,14752,1,0,0:0:0:0:
320,192,14752,1,0,0:0:0:0:
64,192,14912,1,0,0:0:0:0:
320,192,14912,1,0,0:0:0:0:
320,192,15073,1,0,0:0:0:0:
64,192,15153,1,0,0:0:0:0:
448,192,15153,1,0,0:0:0:0:
320,192,15393,1,0,0:0:0:0:
448,192,15393,1,0,0:0:0:0:
192,192,15474,1,0,0:0:0:0:
64,192,15714,1,0,0:0:0:0:
320,192,15714,1,0,0:0:0:0:
448,192,15794,1,0,0:0:0:0:
64,192,16035,1,0,0:0:0:0:
320,192,16035,1,0,0:0:0:0:
448,192,16035,1,0,0:0:0:0:
64,192,16196,1,0,0:0:0:0:
320,192,16196,1,0,0:0:0:0:
448,192,16196,1,0,0:0:0:0:
192,192,16356,1,0,0:0:0:0:
320,192,16356,1,0,0:0:0:0:
448,192,16356,1,0,0:0:0:0:
448,192,16516,1,0,0:0:0:0:
64,192,16516,1,0,0:0:0:0:
320,192,16516,1,0,0:0:0:0:
192,192,16516,1,0,0:0:0:0:
320,192,16677,1,0,0:0:0:0:
448,192,16677,1,0,0:0:0:0:
64,192,16757,1,0,0:0:0:0:
320,192,16837,1,0,0:0:0:0:
448,192,16837,1,0,0:0:0:0:
64,192,16917,1,0,0:0:0:0:
192,192,16917,1,0,0:0:0:0:
320,192,16998,1,0,0:0:0:0:
448,192,16998,1,0,0:0:0:0:
64,192,17078,1,0,0:0:0:0:
192,192,17158,1,0,0:0:0:0:
320,192,17158,1,0,0:0:0:0:
448,192,17158,1,0,0:0:0:0:
64,192,17319,1,0,0:0:0:0:
320,192,17319,1,0,0:0:0:0:
448,192,17319,1,0,0:0:0:0:
192,192,17479,1,0,0:0:0:0:
320,192,17479,1,0,0:0:0:0:
448,192,17479,1,0,0:0:0:0:
64,192,17639,1,0,0:0:0:0:
448,192,17639,1,0,0:0:0:0:
192,192,17639,1,0,0:0:0:0:
320,192,17639,1,0,0:0:0:0:
320,192,17800,1,0,0:0:0:0:
448,192,17800,1,0,0:0:0:0:
64,192,17800,1,0,0:0:0:0:
192,192,17800,1,0,0:0:0:0:
448,192,17960,1,0,0:0:0:0:
320,192,17960,1,0,0:0:0:0:
64,192,17960,1,0,0:0:0:0:
192,192,17960,1,0,0:0:0:0:
448,192,18121,1,0,0:0:0:0:
320,192,18121,1,0,0:0:0:0:
64,192,18121,1,0,0:0:0:0:
192,192,18121,1,0,0:0:0:0:
448,192,18442,1,0,0:0:0:0:
64,192,18442,1,0,0:0:0:0:
64,192,18682,1,0,0:0:0:0:
320,192,18762,1,0,0:0:0:0:
64,192,18923,1,0,0:0:0:0:
320,192,18923,1,0,0:0:0:0:
192,192,19003,1,0,0:0:0:0:
448,192,19003,1,0,0:0:0:0:
320,192,19163,1,0,0:0:0:0:
192,192,19244,1,0,0:0:0:0:
448,192,19404,1,0,0:0:0:0:
192,192,19404,1,0,0:0:0:0:
320,192,19404,1,0,0:0:0:0:
64,192,19645,1,0,0:0:0:0:
320,192,19725,1,0,0:0:0:0:
448,192,19725,1,0,0:0:0:0:
64,192,19966,1,0,0:0:0:0:
320,192,19966,1,0,0:0:0:0:
320,192,20126,1,0,0:0:0:0:
64,192,20206,1,0,0:0:0:0:
448,192,20286,1,0,0:0:0:0:
192,192,20286,1,0,0:0:0:0:
320,192,20447,1,0,0:0:0:0:
448,192,20447,1,0,0:0:0:0:
192,192,20527,1,0,0:0:0:0:
320,192,20688,1,0,0:0:0:0:
448,192,20688,1,0,0:0:0:0:
64,192,20688,1,0,0:0:0:0:
320,192,20928,1,0,0:0:0:0:
192,192,21008,1,0,0:0:0:0:
64,192,21249,1,0,0:0:0:0:
448,192,21329,1,0,0:0:0:0:
320,192,21329,1,0,0:0:0:0:
320,192,21409,1,0,0:0:0:0:
448,192,21409,1,0,0:0:0:0:
64,192,21490,1,0,0:0:0:0:
320,192,21650,1,0,0:0:0:0:
448,192,21650,1,0,0:0:0:0:
192,192,21650,1,0,0:0:0:0:
448,192,21730,1,0,0:0:0:0:
64,192,21811,1,0,0:0:0:0:
320,192,21891,1,0,0:0:0:0:
192,192,21971,1,0,0:0:0:0:
448,192,22051,1,0,0:0:0:0:
192,192,22131,1,0,0:0:0:0:
448,192,22212,1,0,0:0:0:0:
64,192,22292,1,0,0:0:0:0:
448,192,22372,1,0,0:0:0:0:
192,192,22452,1,0,0:0:0:0:
448,192,22532,1,0,0:0:0:0:
64,192,22613,1,0,0:0:0:0:
448,192,22693,1,0,0:0:0:0:
64,192,22773,1,0,0:0:0:0:
448,192,22853,1,0,0:0:0:0:
320,192,22853,1,0,0:0:0:0:
192,192,22934,1,0,0:0:0:0:
320,192,22934,1,0,0:0:0:0:
448,192,23014,1,0,0:0:0:0:
64,192,23174,1,0,0:0:0:0:
448,192,23174,1,0,0:0:0:0:
320,192,23174,1,0,0:0:0:0:
320,192,23335,1,0,0:0:0:0:
448,192,23335,1,0,0:0:0:0:
64,192,23335,1,0,0:0:0:0:
320,192,23415,1,0,0:0:0:0:
448,192,23415,1,0,0:0:0:0:
64,192,23495,1,0,0:0:0:0:
448,192,23575,1,0,0:0:0:0:
64,192,23655,1,0,0:0:0:0:
64,192,23896,1,0,0:0:0:0:
320,192,23896,1,0,0:0:0:0:
320,192,23976,1,0,0:0:0:0:
64,192,24057,1,0,0:0:0:0:
320,192,24137,1,0,0:0:0:0:
64,192,24217,1,0,0:0:0:0:
448,192,24297,1,0,0:0:0:0:
192,192,24297,1,0,0:0:0:0:
448,192,24458,1,0,0:0:0:0:
192,192,24458,1,0,0:0:0:0:
320,192,24458,1,0,0:0:0:0:
64,192,24618,1,0,0:0:0:0:
448,192,24618,1,0,0:0:0:0:
320,192,24698,1,0,0:0:0:0:
192,192,24698,1,0,0:0:0:0:
448,192,24859,1,0,0:0:0:0:
64,192,24939,1,0,0:0:0:0:
320,192,24939,1,0,0:0:0:0:
320,192,25099,1,0,0:0:0:0:
64,192,25099,1,0,0:0:0:0:
320,192,25260,1,0,0:0:0:0:
192,192,25260,1,0,0:0:0:0:
448,192,25420,1,0,0:0:0:0:
192,192,25500,1,0,0:0:0:0:
448,192,25581,1,0,0:0:0:0:
192,192,25661,1,0,0:0:0:0:
448,192,25741,1,0,0:0:0:0:
64,192,25821,1,0,0:0:0:0:
320,192,25901,1,0,0:0:0:0:
64,192,25982,1,0,0:0:0:0:
320,192,26062,1,0,0:0:0:0:
64,192,26222,1,0,0:0:0:0:
320,192,26222,1,0,0:0:0:0:
192,192,26383,1,0,0:0:0:0:
448,192,26383,1,0,0:0:0:0:
192,192,26543,1,0,0:0:0:0:
448,192,26543,1,0,0:0:0:0:
448,192,26704,1,0,0:0:0:0:
64,192,26704,1,0,0:0:0:0:
448,192,26864,1,0,0:0:0:0:
64,192,26864,1,0,0:0:0:0:
320,192,27024,1,0,0:0:0:0:
64,192,27024,1,0,0:0:0:0:
320,192,27185,1,0,0:0:0:0:
64,192,27185,1,0,0:0:0:0:
448,192,27345,1,0,0:0:0:0:
192,192,27426,1,0,0:0:0:0:
320,192,27506,1,0,0:0:0:0:
192,192,27586,1,0,0:0:0:0:
320,192,27666,1,0,0:0:0:0:
192,192,27746,1,0,0:0:0:0:
320,192,27746,1,0,0:0:0:0:
320,192,27907,1,0,0:0:0:0:
192,192,27987,1,0,0:0:0:0:
320,192,28067,1,0,0:0:0:0:
64,192,28147,1,0,0:0:0:0:
320,192,28228,1,0,0:0:0:0:
64,192,28308,1,0,0:0:0:0:
320,192,28468,1,0,0:0:0:0:
192,192,28549,1,0,0:0:0:0:
448,192,28629,1,0,0:0:0:0:
64,192,28709,1,0,0:0:0:0:
320,192,28709,1,0,0:0:0:0:
448,192,28789,1,0,0:0:0:0:
64,192,28869,1,0,0:0:0:0:
320,192,28869,1,0,0:0:0:0:
320,192,29030,1,0,0:0:0:0:
192,192,29110,1,0,0:0:0:0:
448,192,29190,1,0,0:0:0:0:
64,192,29270,1,0,0:0:0:0:
192,192,29351,1,0,0:0:0:0:
320,192,29431,1,0,0:0:0:0:
320,192,29591,1,0,0:0:0:0:
64,192,29591,128,0,31196:0:0:0:0:
448,192,29752,1,0,0:0:0:0:
320,192,29912,1,0,0:0:0:0:
192,192,29912,1,0,0:0:0:0:
320,192,30073,1,0,0:0:0:0:
192,192,30153,1,0,0:0:0:0:
448,192,30233,1,0,0:0:0:0:
320,192,30233,1,0,0:0:0:0:
192,192,30313,1,0,0:0:0:0:
320,192,30393,1,0,0:0:0:0:
448,192,30393,1,0,0:0:0:0:
192,192,30554,1,0,0:0:0:0:
448,192,30554,1,0,0:0:0:0:
320,192,30714,1,0,0:0:0:0:
192,192,30794,1,0,0:0:0:0:
448,192,30875,1,0,0:0:0:0:
192,192,30955,1,0,0:0:0:0:
320,192,31035,1,0,0:0:0:0:
192,192,31196,1,0,0:0:0:0:
448,192,31196,128,0,31516:0:0:0:0:
192,192,31516,1,0,0:0:0:0:
320,192,31516,128,0,31917:0:0:0:0:
64,192,31837,128,0,32238:0:0:0:0:
448,192,31837,128,0,32238:0:0:0:0:
320,192,32158,128,0,32559:0:0:0:0:
192,192,32238,128,0,32559:0:0:0:0:
448,192,32479,1,0,0:0:0:0:
64,192,32559,1,0,0:0:0:0:
320,192,32639,1,0,0:0:0:0:
192,192,32720,1,0,0:0:0:0:
448,192,32800,1,0,0:0:0:0:
64,192,32880,1,0,0:0:0:0:
192,192,32960,1,0,0:0:0:0:
320,192,32960,1,0,0:0:0:0:
320,192,33121,1,0,0:0:0:0:
320,192,33281,1,0,0:0:0:0:
64,192,33361,1,0,0:0:0:0:
320,192,33442,1,0,0:0:0:0:
192,192,33602,1,0,0:0:0:0:
448,192,33602,1,0,0:0:0:0:
320,192,33762,1,0,0:0:0:0:
64,192,33762,1,0,0:0:0:0:
448,192,33843,1,0,0:0:0:0:
192,192,33923,1,0,0:0:0:0:
320,192,34003,1,0,0:0:0:0:
64,192,34083,1,0,0:0:0:0:
192,192,34163,1,0,0:0:0:0:
448,192,34163,1,0,0:0:0:0:
320,192,34244,1,0,0:0:0:0:
64,192,34324,1,0,0:0:0:0:
448,192,34404,1,0,0:0:0:0:
192,192,34404,1,0,0:0:0:0:
320,192,34484,1,0,0:0:0:0:
64,192,34565,1,0,0:0:0:0:
448,192,34565,1,0,0:0:0:0:
192,192,34645,1,0,0:0:0:0:
320,192,34725,1,0,0:0:0:0:
448,192,34805,1,0,0:0:0:0:
320,192,34805,1,0,0:0:0:0:
192,192,34966,1,0,0:0:0:0:
448,192,35046,1,0,0:0:0:0:
320,192,35046,1,0,0:0:0:0:
192,192,35286,1,0,0:0:0:0:
320,192,35286,1,0,0:0:0:0:
320,192,35367,1,0,0:0:0:0:
192,192,35447,1,0,0:0:0:0:
320,192,35527,1,0,0:0:0:0:
64,192,35607,1,0,0:0:0:0:
320,192,35688,1,0,0:0:0:0:
64,192,35768,1,0,0:0:0:0:
320,192,35848,1,0,0:0:0:0:
64,192,36008,1,0,0:0:0:0:
448,192,36089,1,0,0:0:0:0:
192,192,36249,1,0,0:0:0:0:
448,192,36249,1,0,0:0:0:0:
448,192,36409,1,0,0:0:0:0:
192,192,36409,1,0,0:0:0:0:
448,192,36490,1,0,0:0:0:0:
64,192,36650,1,0,0:0:0:0:
448,192,36650,1,0,0:0:0:0:
320,192,36811,1,0,0:0:0:0:
64,192,36811,1,0,0:0:0:0:
320,192,36971,1,0,0:0:0:0:
64,192,36971,1,0,0:0:0:0:
192,192,37212,1,0,0:0:0:0:
448,192,37212,1,0,0:0:0:0:
320,192,37372,1,0,0:0:0:0:
192,192,37372,1,0,0:0:0:0:
448,192,37532,1,0,0:0:0:0:
64,192,37613,1,0,0:0:0:0:
320,192,37693,1,0,0:0:0:0:
64,192,37773,1,0,0:0:0:0:
320,192,37853,1,0,0:0:0:0:
64,192,38014,1,0,0:0:0:0:
320,192,38174,1,0,0:0:0:0:
64,192,38174,1,0,0:0:0:0:
448,192,38254,1,0,0:0:0:0:
64,192,38415,1,0,0:0:0:0:
448,192,38415,1,0,0:0:0:0:
320,192,38495,1,0,0:0:0:0:
192,192,38575,1,0,0:0:0:0:
448,192,38736,1,0,0:0:0:0:
192,192,38736,1,0,0:0:0:0:
448,192,38896,1,0,0:0:0:0:
192,192,38896,1,0,0:0:0:0:
320,192,39057,1,0,0:0:0:0:
64,192,39057,1,0,0:0:0:0:
320,192,39217,1,0,0:0:0:0:
192,192,39297,1,0,0:0:0:0:
320,192,39377,1,0,0:0:0:0:
192,192,39458,1,0,0:0:0:0:
448,192,39538,1,0,0:0:0:0:
320,192,39618,1,0,0:0:0:0:
192,192,39618,1,0,0:0:0:0:
64,192,39859,1,0,0:0:0:0:
448,192,39859,1,0,0:0:0:0:
192,192,40180,1,0,0:0:0:0:
320,192,40180,1,0,0:0:0:0:
64,192,40500,1,0,0:0:0:0:
320,192,40500,1,0,0:0:0:0:
320,192,40661,1,0,0:0:0:0:
192,192,40741,1,0,0:0:0:0:
320,192,40821,1,0,0:0:0:0:
192,192,40901,1,0,0:0:0:0:
448,192,40982,1,0,0:0:0:0:
192,192,41062,1,0,0:0:0:0:
320,192,41142,1,0,0:0:0:0:
192,192,41303,1,0,0:0:0:0:
320,192,41383,1,0,0:0:0:0:
64,192,41463,1,0,0:0:0:0:
320,192,41543,1,0,0:0:0:0:
192,192,41784,1,0,0:0:0:0:
320,192,41784,1,0,0:0:0:0:
64,192,42105,1,0,0:0:0:0:
320,192,42105,1,0,0:0:0:0:
320,192,42426,128,0,42746:0:0:0:0:
64,192,42426,128,0,42746:0:0:0:0:
448,192,42746,128,0,43067:0:0:0:0:
192,192,42746,128,0,43067:0:0:0:0:
64,192,43067,128,0,43388:0:0:0:0:
320,192,43067,128,0,43388:0:0:0:0:
192,192,43388,128,0,43709:0:0:0:0:
448,192,43388,128,0,43709:0:0:0:0:
64,192,43709,128,0,44030:0:0:0:0:
320,192,43709,128,0,44030:0:0:0:0:
192,192,44030,1,0,0:0:0:0:
448,192,44030,1,0,0:0:0:0:
64,192,44351,1,0,0:0:0:0:
192,192,44351,1,0,0:0:0:0:
320,192,44351,1,0,0:0:0:0:
448,192,44351,1,0,0:0:0:0:
320,192,44511,1,0,0:0:0:0:
448,192,44511,1,0,0:0:0:0:
192,192,44511,1,0,0:0:0:0:
64,192,44511,1,0,0:0:0:0:
320,192,44671,1,0,0:0:0:0:
64,192,44671,1,0,0:0:0:0:
192,192,44671,1,0,0:0:0:0:
448,192,44671,1,0,0:0:0:0:
448,192,44992,1,0,0:0:0:0:
320,192,45153,1,0,0:0:0:0:
448,192,45153,1,0,0:0:0:0:
320,192,45313,1,0,0:0:0:0:
448,192,45313,1,0,0:0:0:0:
192,192,45313,1,0,0:0:0:0:
320,192,45474,1,0,0:0:0:0:
448,192,45474,1,0,0:0:0:0:
320,192,45634,1,0,0:0:0:0:
448,192,45634,1,0,0:0:0:0:
320,192,45794,1,0,0:0:0:0:
192,192,45794,1,0,0:0:0:0:
320,192,45955,1,0,0:0:0:0:
192,192,46035,1,0,0:0:0:0:
320,192,46115,1,0,0:0:0:0:
64,192,46276,1,0,0:0:0:0:
320,192,46276,1,0,0:0:0:0:
320,192,46516,1,0,0:0:0:0:
64,192,46516,1,0,0:0:0:0:
192,192,46677,1,0,0:0:0:0:
320,192,46677,1,0,0:0:0:0:
64,192,46837,1,0,0:0:0:0:
320,192,46998,1,0,0:0:0:0:
192,192,46998,1,0,0:0:0:0:
448,192,47158,1,0,0:0:0:0:
320,192,47319,1,0,0:0:0:0:
192,192,47319,1,0,0:0:0:0:
448,192,47479,1,0,0:0:0:0:
320,192,47639,1,0,0:0:0:0:
64,192,47720,1,0,0:0:0:0:
448,192,47880,1,0,0:0:0:0:
320,192,48040,1,0,0:0:0:0:
448,192,48201,1,0,0:0:0:0:
192,192,48201,1,0,0:0:0:0:
64,192,48361,1,0,0:0:0:0:
192,192,48442,1,0,0:0:0:0:
320,192,48682,1,0,0:0:0:0:
64,192,48843,1,0,0:0:0:0:
192,192,48843,1,0,0:0:0:0:
448,192,49003,1,0,0:0:0:0:
320,192,49163,1,0,0:0:0:0:
64,192,49244,1,0,0:0:0:0:
448,192,49404,1,0,0:0:0:0:
320,192,49404,1,0,0:0:0:0:
64,192,49565,1,0,0:0:0:0:
192,192,49565,1,0,0:0:0:0:
448,192,49645,1,0,0:0:0:0:
320,192,49645,1,0,0:0:0:0:
64,192,49725,1,0,0:0:0:0:
192,192,49805,1,0,0:0:0:0:
448,192,49805,1,0,0:0:0:0:
320,192,49805,1,0,0:0:0:0:
64,192,49966,1,0,0:0:0:0:
192,192,49966,1,0,0:0:0:0:
448,192,50046,1,0,0:0:0:0:
320,192,50206,1,0,0:0:0:0:
64,192,50367,1,0,0:0:0:0:
448,192,50447,1,0,0:0:0:0:
320,192,50527,1,0,0:0:0:0:
64,192,50768,1,0,0:0:0:0:
192,192,50768,1,0,0:0:0:0:
320,192,50768,1,0,0:0:0:0:
448,192,50768,1,0,0:0:0:0:
448,192,51008,1,0,0:0:0:0:
320,192,51089,1,0,0:0:0:0:
448,192,51329,1,0,0:0:0:0:
64,192,51409,1,0,0:0:0:0:
192,192,51409,1,0,0:0:0:0:
320,192,51409,1,0,0:0:0:0:
448,192,51409,1,0,0:0:0:0:
320,192,51730,1,0,0:0:0:0:
448,192,51730,1,0,0:0:0:0:
320,192,51811,1,0,0:0:0:0:
64,192,51971,1,0,0:0:0:0:
192,192,51971,1,0,0:0:0:0:
448,192,52051,1,0,0:0:0:0:
320,192,52131,1,0,0:0:0:0:
64,192,52212,1,0,0:0:0:0:
192,192,52212,1,0,0:0:0:0:
320,192,52292,1,0,0:0:0:0:
448,192,52292,1,0,0:0:0:0:
64,192,52372,1,0,0:0:0:0:
192,192,52372,1,0,0:0:0:0:
320,192,52452,1,0,0:0:0:0:
448,192,52452,1,0,0:0:0:0:
64,192,52613,1,0,0:0:0:0:
192,192,52613,1,0,0:0:0:0:
320,192,52613,1,0,0:0:0:0:
448,192,52613,1,0,0:0:0:0:
64,192,52773,1,0,0:0:0:0:
448,192,52934,1,0,0:0:0:0:
320,192,53094,1,0,0:0:0:0:
192,192,53174,1,0,0:0:0:0:
448,192,53415,1,0,0:0:0:0:
320,192,53575,1,0,0:0:0:0:
192,192,53655,1,0,0:0:0:0:
64,192,53976,1,0,0:0:0:0:
192,192,54137,1,0,0:0:0:0:
320,192,54297,1,0,0:0:0:0:
192,192,54618,1,0,0:0:0:0:
320,192,54859,1,0,0:0:0:0:
64,192,55260,1,0,0:0:0:0:
192,192,55260,1,0,0:0:0:0:
192,192,55500,1,0,0:0:0:0:
320,192,55581,1,0,0:0:0:0:
320,192,55901,1,0,0:0:0:0:
448,192,55901,1,0,0:0:0:0:
320,192,56222,1,0,0:0:0:0:
448,192,56222,1,0,0:0:0:0:
448,192,56543,1,0,0:0:0:0:
320,192,56543,1,0,0:0:0:0:
192,192,56543,1,0,0:0:0:0:
320,192,56704,1,0,0:0:0:0:
448,192,56704,1,0,0:0:0:0:
192,192,56704,1,0,0:0:0:0:
192,192,56784,1,0,0:0:0:0:
320,192,56784,1,0,0:0:0:0:
448,192,56784,1,0,0:0:0:0:
448,192,57105,1,0,0:0:0:0:
64,192,57426,1,0,0:0:0:0:
448,192,57746,128,0,58147:0:0:0:0:
192,192,57746,128,0,58147:0:0:0:0:
320,192,57746,128,0,58147:0:0:0:0:
448,192,58468,1,0,0:0:0:0:
320,192,58789,1,0,0:0:0:0:
448,192,59110,128,0,59591:0:0:0:0:
64,192,59110,128,0,59591:0:0:0:0:
192,192,59110,128,0,59591:0:0:0:0:
320,192,59110,128,0,59591:0:0:0:0:
448,192,59752,1,0,0:0:0:0:
320,192,60073,1,0,0:0:0:0:
64,192,60393,1,0,0:0:0:0:
320,192,60393,1,0,0:0:0:0:
448,192,60714,1,0,0:0:0:0:
192,192,60714,1,0,0:0:0:0:
192,192,61035,1,0,0:0:0:0:
320,192,61035,1,0,0:0:0:0:
448,192,61356,1,0,0:0:0:0:
64,192,61356,1,0,0:0:0:0:
192,192,61677,1,0,0:0:0:0:
320,192,61677,1,0,0:0:0:0:
64,192,62319,1,0,0:0:0:0:
320,192,62319,1,0,0:0:0:0:
192,192,62639,1,0,0:0:0:0:
448,192,62639,1,0,0:0:0:0:
320,192,62960,128,0,63281:0:0:0:0:
64,192,62960,128,0,63361:0:0:0:0:
320,192,63602,1,0,0:0:0:0:
192,192,63923,1,0,0:0:0:0:
448,192,63923,1,0,0:0:0:0:
64,192,64244,1,0,0:0:0:0:
320,192,64244,1,0,0:0:0:0:
448,192,64565,1,0,0:0:0:0:
192,192,64565,1,0,0:0:0:0:
64,192,64885,1,0,0:0:0:0:
320,192,64885,1,0,0:0:0:0:
192,192,65206,1,0,0:0:0:0:
448,192,65206,1,0,0:0:0:0:
320,192,65527,1,0,0:0:0:0:
64,192,65527,1,0,0:0:0:0:
64,192,66089,1,0,0:0:0:0:
448,192,66089,1,0,0:0:0:0:
320,192,66409,1,0,0:0:0:0:
192,192,66409,1,0,0:0:0:0:
320,192,66570,1,0,0:0:0:0:
192,192,66570,1,0,0:0:0:0:
192,192,66891,1,0,0:0:0:0:
320,192,66971,1,0,0:0:0:0:
320,192,67051,1,0,0:0:0:0:
192,192,67051,1,0,0:0:0:0:
64,192,67372,1,0,0:0:0:0:
320,192,67372,1,0,0:0:0:0:
192,192,67693,1,0,0:0:0:0:
320,192,67693,1,0,0:0:0:0:
448,192,68014,1,0,0:0:0:0:
192,192,68014,1,0,0:0:0:0:
64,192,68655,1,0,0:0:0:0:
320,192,68655,1,0,0:0:0:0:
192,192,68976,1,0,0:0:0:0:
320,192,68976,1,0,0:0:0:0:
64,192,69297,1,0,0:0:0:0:
448,192,69377,1,0,0:0:0:0:
320,192,70019,1,0,0:0:0:0:
64,192,70019,1,0,0:0:0:0:
192,192,70340,1,0,0:0:0:0:
448,192,70340,1,0,0:0:0:0:
320,192,70661,1,0,0:0:0:0:
64,192,70661,1,0,0:0:0:0:
192,192,70982,1,0,0:0:0:0:
448,192,70982,1,0,0:0:0:0:
64,192,71303,1,0,0:0:0:0:
448,192,71303,1,0,0:0:0:0:
320,192,71623,1,0,0:0:0:0:
192,192,71623,1,0,0:0:0:0:
64,192,71944,1,0,0:0:0:0:
448,192,71944,1,0,0:0:0:0:
64,192,72586,1,0,0:0:0:0:
320,192,72586,1,0,0:0:0:0:
192,192,72907,1,0,0:0:0:0:
448,192,72907,1,0,0:0:0:0:
64,192,73228,1,0,0:0:0:0:
320,192,73228,1,0,0:0:0:0:
64,192,73950,1,0,0:0:0:0:
448,192,73950,1,0,0:0:0:0:
192,192,74270,1,0,0:0:0:0:
320,192,74270,1,0,0:0:0:0:
448,192,74511,1,0,0:0:0:0:
192,192,74591,1,0,0:0:0:0:
320,192,74832,1,0,0:0:0:0:
64,192,74832,1,0,0:0:0:0:
192,192,75153,1,0,0:0:0:0:
448,192,75153,1,0,0:0:0:0:
192,192,75474,1,0,0:0:0:0:
320,192,75794,1,0,0:0:0:0:
64,192,75794,128,0,78121:0:0:0:0:
320,192,76115,1,0,0:0:0:0:
320,192,76436,1,0,0:0:0:0:
320,192,76757,1,0,0:0:0:0:
320,192,77399,1,0,0:0:0:0:
448,192,77720,1,0,0:0:0:0:
320,192,78040,1,0,0:0:0:0:
192,192,78361,1,0,0:0:0:0:
448,192,78361,1,0,0:0:0:0:
320,192,78682,1,0,0:0:0:0:
192,192,79003,1,0,0:0:0:0:
320,192,79003,1,0,0:0:0:0:
320,192,79324,1,0,0:0:0:0:
64,192,79645,1,0,0:0:0:0:
320,192,79645,1,0,0:0:0:0:
320,192,79966,1,0,0:0:0:0:
192,192,80286,1,0,0:0:0:0:
448,192,80286,1,0,0:0:0:0:
320,192,80607,1,0,0:0:0:0:
192,192,80928,1,0,0:0:0:0:
320,192,80928,1,0,0:0:0:0:
320,192,81249,1,0,0:0:0:0:
64,192,81249,1,0,0:0:0:0:
320,192,81570,1,0,0:0:0:0:
192,192,81570,1,0,0:0:0:0:
192,192,81891,1,0,0:0:0:0:
448,192,81891,1,0,0:0:0:0:
192,192,82212,1,0,0:0:0:0:
320,192,82212,1,0,0:0:0:0:
448,192,82212,1,0,0:0:0:0:
320,192,82532,1,0,0:0:0:0:
448,192,82532,1,0,0:0:0:0:
64,192,82853,1,0,0:0:0:0:
320,192,82853,1,0,0:0:0:0:
448,192,82853,1,0,0:0:0:0:
320,192,83174,1,0,0:0:0:0:
448,192,83174,1,0,0:0:0:0:
192,192,83495,1,0,0:0:0:0:
448,192,83495,1,0,0:0:0:0:
320,192,83816,1,0,0:0:0:0:
64,192,84137,1,0,0:0:0:0:
320,192,84137,1,0,0:0:0:0:
320,192,84458,1,0,0:0:0:0:
192,192,84698,1,0,0:0:0:0:
320,192,84698,1,0,0:0:0:0:
448,192,84698,1,0,0:0:0:0:
320,192,85019,1,0,0:0:0:0:
448,192,85019,1,0,0:0:0:0:
64,192,85340,1,0,0:0:0:0:
320,192,85340,1,0,0:0:0:0:
448,192,85340,1,0,0:0:0:0:
320,192,85661,1,0,0:0:0:0:
192,192,85982,1,0,0:0:0:0:
320,192,85982,1,0,0:0:0:0:
448,192,85982,1,0,0:0:0:0:
64,192,86303,1,0,0:0:0:0:
320,192,86303,1,0,0:0:0:0:
448,192,86303,1,0,0:0:0:0:
320,192,86623,1,0,0:0:0:0:
448,192,86623,1,0,0:0:0:0:
192,192,86623,1,0,0:0:0:0:
448,192,86864,1,0,0:0:0:0:
320,192,86864,1,0,0:0:0:0:
64,192,86944,1,0,0:0:0:0:
192,192,86944,1,0,0:0:0:0:
320,192,87024,128,0,89270:0:0:0:0:
448,192,87105,128,0,89270:0:0:0:0:
64,192,87185,128,0,89270:0:0:0:0:
192,192,87185,128,0,89270:0:0:0:0:
